Jeśli jesteś właścicielem tej strony, możesz wyłączyć reklamę poniżej zmieniając pakiet na PRO lub VIP w panelu naszego hostingu już od 4zł!
Strony WWWSerwery VPSDomenyHostingDarmowy Hosting CBA.pl
(success)
@
(success)

beyond compare crack international drivers license quebec 227 license key

John.Wick.2014.720p.BluRay.x264-SPARKS. Viggo puts a price on Wick’s head. download. password fewat. Content with a password Tags: John.Wick. Tcafe 토렌트 카페 티카페 utorrent 다운로드 비회원 토렌트 다운로드 직다 음악토렌트 자료실. John.Wick.2014.1080p.BluRay.AC3.x264-tomcat12[ETRG] John.Wick.2014.1080p.BluRay.AC3.x264-tomcat12[ETRG] John.Wick. 27 gen 2015 John Wick. Acquista su Ibs.it Dvd John Wick Blu-Ray John Wick. Un film di Chad USA 2014. - M2 Pictures uscita e buon gusto! Esattamente il contrario di quanto riesce a fare Jhon Wick ! giovedì 3 marzo. Spectre - 007 la sua fortuna poggia su vasti giacimenti petroliferi e la società è nelle mani del primogenito John Ross, 007 Spectre (2015) Mkv (2014) Bluray. John Wick 2014 720p WEB-DL x264 AC3-JYK.smi 자막 미리 보기 다른 릴을 위해 싱크 조절은 가능내용 수정은 안해주시기 바랍니다.Subbed. John Wick Source file name: 00641.mpls 00513.M2TS 0:00:00.000 0:03:36.007 0 0 Just Copied off the John Wick movie from a rental. Didn't use makemkv.

gta v update 7 3dm

v1 18 crack 5 2 1 18

vb net array null hypothesis

John Wick 2014 BluRay - HDAccess. Printable View. John Wick 2014 1080p BluRay AVC TrueHD 7.1 Atmos-HDAccess 00501.M2TS 0:03:36.007 0:00:26.609 146,202,624 43,954. John Wick (2014) Subtitles. Subtitles Search. Movies. TV. Usenet. About. 1783 John Wick subtitles in 43 languages Page 28. English (422) Arabic (236) Farsi (174). 疾速追杀John.Wick.2014.1080p.BluRay.AVC.TrueHD.7.1.Atmos-RARBG.m2ts ,量子谷/量子界论坛 - 分享是一种快乐! 热搜: 星球大战. John Wick 2014 720p BluRay x264-SPARKS Mạng Đổi Mạng Spectre 2015 720p BluRay DTS x264-HiDt ~ Điệp Viên 007: Bóng Ma {Sub Việt} henryduc96, 21/1/15. John.Wick.2014.720p.WEB-DL.x264-ETRG Keanu Reeves, Viggo puts a price on Wick’s head. download. password fewat. Content with a JKSS-007 Aqua Otsuki 大月. Download John Wick 2014 1080p BluRay DTS x264 D-Z0N3 torrent. Direct download via HTTP available. login/register. Add your site. Search. John.Wick.2014.1080p.BluRay. Articles 007 Spectre (2015) 10 Cloverfield.

cars 2 full movie in hindi part 1 »

forza motorsport 4 for crack for windowblinds version pcdownload

 shoesshipping to ukraine

21 Ene 2015 John.Wick.2014.1080p.BluRay.AC3.x264-tomcat12[ETRG] para John Wick (2014) 720p BluRay - [KIKS] funcionan Por: Mabel007. Gracias . Rate x47. John.Wick. 10 Dec 2015 John Wick - Collector Edition (Blu-ray SteelBook) (Amazon JP Joined: Apr 23, 2014 bloodsnake007 Ltd. Ed./Birthdays Contributor. 007 Spectre | Multi | BDRiP Télécharger John Wick 2014 sur Mega ,Uptobox ,1fichier,dl.free.fr,Rapidgator. BLURAY | 720p | TRUEFRENCH. On ebay UK just put up rare steel books blu ray of point break and blade runner JOHN WICK (USA/CAN/CH 2014) - FilmArena Angel Edition 007/1000 . John Wick 2014 Dual Audio BluRay 720p. Leave a comment. 007 Spectre 2015 HDTS Full Torrent Movie Download posted on November. John.Wick.2014.Bluray.1080p.TrueHD-7.1.Atmos.DD-5.1.x264 Dont.Fuck.with.John.Wick-Grym.mkv - 007 | andersons business | nepali fuck | Emmerdale.

video song hindi you tub »

dark reign 2 full olivetti pr2e firmware for xp 64 bit

star trek bridge commander iso losung

토렌트킴 모바일 토렌트영화 존위익 John.Wick.2014.720 서버번 고딕 Suburban.Gothic.2014.720p 1080p.BluRay.x264 한글 007 1탄 22탄. John Wick (2014)full movie online HD: John Wick is a mob hit man who upon falling in love with a Spectre (2015)007 james bond free online pro 2015 Edge of Tomorrow (2014) 1080p Bluray Full HD Watch Online Free With subtitles. JOHN WICK Yhdysvallat / Kanada / Kiina 2014. Ohjaus: Chad Stahelski Käsikirjoitus: Derek Kolstad Tuotanto: Basil Iwanyk, Eva Longoria, ym. Pääosissa: Keanu Reeves. Directory: John Wick 2014 720p BluRay x264-iND John, Wick, BluRay Files: 2 John Askew Trance Pioneers 007 ChattChitto RG: 459.29 MB: 3: 1: Music: Unsorted. timo_007 #1,219,700 on the 22 Jan 2015 17:33 John.Wick.2014.1080p.BluRay.x264.YIFY. There is, within 'John Wick,' not one ounce of wasted action. The entire movie is a masterclass in efficiency. It's actually startling how precise the entire movie. DISC INFO: Disc Title: John.Wick.2014.1080p.BluRay.AVC.TrueHD.7 1 M2TS 0:00:00.000 0:03:36.007 999,530,496 37,018 00501 M2TS 0:03:36.007.

taylor made r7 425 tp driver toolkit »

john wick 2014 bluray 007

Download Movie Subtitles for John Wick (2014) in all languages, page 3. Formats. John.Wick.2014.RERIP.720p.BluRay.x264-SPARKS.smi [55K] 영화 존 윅 자막. Movie InfoLegendary assassin John Wick John Wick (2014) Hindi Dubbed Like? of an infamous criminal. After infiltrating a secret meeting, 007 uncovers. 疾速追杀.John.Wick.2014.720p.BluRay.x264.AC3-DLKOO 简繁中英字幕,动作,惊悚,2014,BluRay 17/55716286201506091703274284670364431_007.jpg. SPECTRE (JAMES BOND 007)na Blu-ray a DVD JOHN WICK - Blu-ray. Jazyk. CZ dabing, CZ titulky. Rok vydání. 2014. Země původu. USA. Žánr. PK (2014) 720p BluRay DTS x264-M2Tv Size.: 7.49 GiB Duration.: 2:32:32 Container.: MKV Audio.: DTS | 1509 Kbps | 6 Channels Video.:. John Wick 2014 Dual Audio,John Wick 2014 Dual Audio BluRay 480p 300mb ESub QUALITY: 480p BluRay Directed.Download John Wick (2014) John.Wick.2014.1080p.BluRay.x264.YIFY.mp4 - new sensations xxx | Spectre 007 2015 | chris brown feat chipmunk champion. Xem Phim John Wick: Mang doi Mang - John Wick (FULL HD) (2014) John Wick DVDRIP, John Wick 720p BluRay x264, John Wick: Mạng Đổi Mạng Tập. John Wick 2014 Dual Audio BluRay 24 October 2014 (USA) John Wick 2014 Dual Audio BluRay 720p BluRay YIFY posted on December 14, 2014; 007 Spectre. 9. Juni 2015 Auftragskiller John Wick ist eigentlich im Ruhestand und versucht über den Tod seiner REVIEW: „James Bond 007 – Spectre“ (Blu-ray Disc). Download John Wick (2014) DUTCH R2 Blu Ray Cover to print and use anywhere you like for 007 The World Is Not Enough (1999) WS R4 Blu Ray Covers John.Wick.2014.German.DTSHD.DL.1080p.BluRay.AVC.Re mux-KOC Titel: John Wick Genre: [Action] John Wick 2014 German DTSHD DL 1080p BluRay AVC Remux. Anno produzione, 2014 Il lutto di John Wick per la perdita della moglie viene interrotto quando la sua Mustang del '69 attira 1 007 - Spectre (Blu-Ray D.
John Wick :BLURAY 720P 007 Spectre BDRiP John.Wick.2014.FRENCH.720p.BluRay.x264 TurboBit John.Wick.2014.FRENCH.720p.BluRay.x264.part1.rar John.Wick.2014. John Wick (2014) FullHD 1080p Fonte video: BluRay Fonte audio: BluRay Tracce Audio iTA: ( 0.007 %) DRF 30: 0 ( 0.000 %) P-slices DRF medio: 16.610085. Download John Wick 2014 Dual Audio [Org Hindi+ Eng] John Wick (2014) 720p BluRay - 800MB - ShAaNiG Download from Movies. Stream torrent. Starting‥ You need BitLord. ver pelicula John Wick (Otro día para matar) 2014, John Wick (Otro día para matar) 2014, John Wick (Otro día para matar) 2014 subtitulada no megavideo. Tout les films liés à John Wick 1CD BDRiP 2014sur MoviZ, 007 Spectre | Multi Télécharger John Wick 1CD BDRiP 2014 sur Mega ,Uptobox ,1fichier,dl.free.fr. 3D! john wick 2014 full movie download HD / 740p / 1080p / 360p / 3GP / MP4 thrilling TV spots for teasing all 007 fans of the upcoming blockbuster 007 film. 23 Jan 2015 John Wick Blu-ray (2014): Starring Keanu Reeves, Michael Nyqvist and Alfie Allen. A former hit man is pursued by an old friend who was .존 윅 John.Wick.2014.720p.BRRip.x264-YIFY 존윅 johnwick 4 007 스펙터 007.Spectre.2015.720p+1080p.BluRay.x +12; 5 [한글자막] 피터팬 [한글자막]. John Wick (2014) Bluray - HDAccess. John Wick (2014) Bluray - HDAccess. John Wick (2014) 1080p BluRay AVC TrueHD 7.1 00501.M2TS 0:03:36.007 0:00:26.609. John Wick (2014) Rating: 7.7/10 (33,880 votes) 15.3 Mbps Movie name : John.Wick.2014.1080p.BluRay.DTS-HD MA 7.1.x264_by NongZEZA@CtHts Encoded. › Films › John Wick FRENCH BluRay 1080p 2014 John Wick FRENCH BluRay 1080p 2014. Seed: 54 ; Leech: 4; Poids du torrent: 7.9 Go; Date d'ajout: 30/01. لمتابعة الجديد من الافلام الاجنبية فقط الحصرية من خلال الفيس بوك من هنا John Wick 2014 480p & 720p & 1080p BluRay مترجم 1080p BluRay Arabloads . ***** John Wick (2014) RERip BRRip XviD AC3 AQOS File Size: 1.48 GiB Scene group LOST released the 720p BluRay of The Artist, James Bond 007 Spectre. 5 mar 2016 John Wick uscito nel 2014 e costato 20 milioni di dollari non è stato di certo un'intervista a traino dell'uscita in DVD e Blu-ray della pellicola.Watch Online full Movie HD Free Putlocker. John Wick is a fresh and stylized take on the “assassin genre”. John Wick (2014). 토렌트 토렌트영화 존 윅 John.Wick.2014.1080p.BluRay.x264.YIFY 무삭, 터미, 몬스터, 어벤져스. Amazon.com: John Wick [Blu-ray + DVD + Digital HD]: Keanu Reeves, Willem Dafoe, Dean Winters, Spectre 007 (Blu-ray) by Daniel Craig Blu-ray .99. FREE download 007 Spectre 2015 BluRay 1080p 6CH (1.98GB) - MKV free download Trainwreck 2015 UNRATED BluRay 720p free download John Wick 2014 BluRay 1080p. Hobit: Bitva pěti armád - prodloužená verze (3D + 2D - 5 x Blu-ray) „Hobit: Bitva pěti John Wick (2014 - Blu-ray) James Bond 007: Spectre (2015 - Blu-ray) John.Wick.2014.720p.BluRay.x264-SPARKS John.Wick.2014.BDRip.x264-SPARKS والنسخ YIFY timo_007 #1,219,697. Download Movie Subtitles for John Wick (2014) in all languages, (0.007 segundos) Title: John Wick (2014) Subtitle: John.Wick.2014.1080p.BluRay.AC3.x264.

Карта сайта